Name: rockboy
Зарегистрирован: 01.12.2021
Контакты
  • E-mail: rockboy575@gmail.com
  • WhatsApp: +353833061642
230
0
0
1
Бизнес контакты
Putkin Vasilij
Запишу CD в WAV lossless по Вашeй заявкe
Страна: Латвия
Город: Rēzekne
музыка lossless
музыка lossless - скачать музыку в WAV, FLAC и других lossless форматах
Музыка
rockboy
08.02.2022

Dorothy - Rest In Peace. FLAC, 2022


ИНФОРМАЦИЯ О ФАЙЛЕ

Format                                   : FLAC
Format/Info                              : Free Lossless Audio Codec
File size                                : 25.6 MiB
Duration                                 : 3 min 37 s
Overall bit rate mode                    : Variable
Overall bit rate                         : 989 kb/s
Album                                    : Rest In Peace - Single
Part                                     : 1
Part/Total                               : 1
Track name                               : Rest In Peace
Track name/Position                      : 01
Track name/Total                         : 01
Performer                                : Dorothy
Label                                    : 2022 | Roc Nation Records, LLC
Genre                                    : Female Rock,
Recorded date                            : 2022
Cover                                    : Yes
Cover type                               : Cover (front)
Cover MIME                               : image/jpeg

Audio
Format                                   : FLAC
Format/Info                              : Free Lossless Audio Codec
Duration                                 : 3 min 37 s
Bit rate mode                            : Variable
Bit rate                                 : 987 kb/s
Channel(s)                               : 2 channels
Channel layout                           : L R
Sampling rate                            : 44.1 kHz
Bit depth                                : 16 bits
Compression mode                         : Lossless
Stream size                              : 25.6 MiB (100%)
Writing library                          : libFLAC 1.3.0 (UTC 2013-05-26)

Dorothy - Rest In Peace - spectrogram

Dorothy - Rest In Peace - detector

 

Для получения ссылки для скачивания , или заказать интересующую Вас песню свяжитесь с нами: WhatsApp, Telegram: +353833061642, e-mail: super.valerij2012@yandex.ru
To get a download link, or order a song you are interested in, contact us: WhatsApp, Telegram: +353833061642, e-mail: super.valerij2012@yandex.ru
Музыка
rockboy
08.02.2022

Ministry - Believe Me. FLAC, 2021

 заявка

ИНФОРМАЦИЯ О ФАЙЛЕ

Format                                   : FLAC
Format/Info                              : Free Lossless Audio Codec
File size                                : 44.6 MiB
Duration                                 : 5 min 52 s
Overall bit rate mode                    : Variable
Overall bit rate                         : 1 062 kb/s
Album                                    : Moral Hygiene
Part                                     : 1
Part/Total                               : 1
Track name                               : Believe Me
Track name/Position                      : 06
Track name/Total                         : 10
Performer                                : Ministry
Label                                    : 2021 | Nuclear Blast
Genre                                    : Rock,
Recorded date                            : 2021
Cover                                    : Yes
Cover type                               : Cover (front)
Cover MIME                               : image/jpeg

Audio
Format                                   : FLAC
Format/Info                              : Free Lossless Audio Codec
Duration                                 : 5 min 52 s
Bit rate mode                            : Variable
Bit rate                                 : 1 060 kb/s
Channel(s)                               : 2 channels
Channel layout                           : L R
Sampling rate                            : 44.1 kHz
Bit depth                                : 16 bits
Compression mode                         : Lossless
Stream size                              : 44.5 MiB (100%)
Writing library                          : libFLAC 1.3.0 (UTC 2013-05-26)
 

Ministry - Believe Me - spectrogram

Ministry - Believe Me - detector

 

Для получения ссылки для скачивания , или заказать интересующую Вас песню свяжитесь с нами: WhatsApp, Telegram: +353833061642, e-mail: super.valerij2012@yandex.ru
To get a download link, or order a song you are interested in, contact us: WhatsApp, Telegram: +353833061642, e-mail: super.valerij2012@yandex.ru
Музыка
rockboy
06.02.2022

Aldo Lesina - It's Just A Story (Extended Vocal Dance Mix). FLAC, 2022

 заявка

ИНФОРМАЦИЯ О ФАЙЛЕ

Format                                   : FLAC
Format/Info                              : Free Lossless Audio Codec
File size                                : 49.3 MiB
Duration                                 : 6 min 21 s
Overall bit rate mode                    : Variable
Overall bit rate                         : 1 086 kb/s
Album                                    : It's Just a Story
Part                                     : 1
Part/Total                               : 1
Track name                               : It's Just a Story (Extended Vocal Dance Mix)
Track name/Position                      : 01
Track name/Total                         : 06
Performer                                : Aldo Lesina
Label                                    : BCR
Genre                                    : Nu Disco,
Recorded date                            : 2022
BPM                                      : 114
Cover                                    : Yes
Cover type                               : Cover (front)
Cover MIME                               : image/jpeg
INITIALKEY                               : B♭ min
CATALOG NUMBER                           : BCR1108

Audio
Format                                   : FLAC
Format/Info                              : Free Lossless Audio Codec
Duration                                 : 6 min 21 s
Bit rate mode                            : Variable
Bit rate                                 : 1 084 kb/s
Channel(s)                               : 2 channels
Channel layout                           : L R
Sampling rate                            : 44.1 kHz
Bit depth                                : 16 bits
Compression mode                         : Lossless
Stream size                              : 49.3 MiB (100%)
Writing library                          : libFLAC 1.3.1 (UTC 2014-11-25)

Aldo Lesina - It's Just A Story - spectrogram

Aldo Lesina - It's Just A Story - detector

 

Для получения ссылки для скачивания , или заказать интересующую Вас песню свяжитесь с нами: WhatsApp, Telegram: +353833061642, e-mail: super.valerij2012@yandex.ru
To get a download link, or order a song you are interested in, contact us: WhatsApp, Telegram: +353833061642, e-mail: super.valerij2012@yandex.ru
Музыка
rockboy
06.02.2022

Arch Enemy - Handshake with Hell. FLAC, 2022

 

ИНФОРМАЦИЯ О ФАЙЛЕ

Format                                   : FLAC
Format/Info                              : Free Lossless Audio Codec
File size                                : 37.7 MiB
Duration                                 : 5 min 38 s
Overall bit rate mode                    : Variable
Overall bit rate                         : 933 kb/s
Album                                    : Deceivers
Part                                     : 1
Part/Total                               : 1
Track name                               : Handshake with Hell
Track name/Position                      : 01
Track name/Total                         : 11
Performer                                : Arch Enemy
Label                                    : ℗ 2022 Savage Messiah Music. Licensed exclusively in the territory Century Media Records Ltd
Genre                                    : Female Metal,
Recorded date                            : 2022
Cover                                    : Yes
Cover type                               : Cover (front)
Cover MIME                               : image/jpeg

Audio
Format                                   : FLAC
Format/Info                              : Free Lossless Audio Codec
Duration                                 : 5 min 38 s
Bit rate mode                            : Variable
Bit rate                                 : 928 kb/s
Channel(s)                               : 2 channels
Channel layout                           : L R
Sampling rate                            : 44.1 kHz
Bit depth                                : 16 bits
Compression mode                         : Lossless
Stream size                              : 37.5 MiB (99%)
Writing library                          : libFLAC 1.3.1 (UTC 2014-11-25)

Arch Enemy - Handshake with Hell - spectrogram

Arch Enemy - Handshake with Hell - detector

 
Для получения ссылки для скачивания , или заказать интересующую Вас песню свяжитесь с нами: WhatsApp, Telegram: +353833061642, e-mail: super.valerij2012@yandex.ru
To get a download link, or order a song you are interested in, contact us: WhatsApp, Telegram: +353833061642, e-mail: super.valerij2012@yandex.ru
Музыка
rockboy
04.02.2022

Би-2 - Я никому не верю. FLAC, 2022


ИНФОРМАЦИЯ О ФАЙЛЕ

Format                                   : FLAC
Format/Info                              : Free Lossless Audio Codec
File size                                : 42.7 MiB
Duration                                 : 6 min 8 s
Overall bit rate mode                    : Variable
Overall bit rate                         : 971 kb/s
Album                                    : Я никому не верю
Part                                     : 1
Part/Total                               : 1
Track name                               : Я никому не верю
Track name/Position                      : 01
Track name/Total                         : 09
Performer                                : Би-2
Label                                    : ©&℗ 2022 M2
Genre                                    : Pop,
Recorded date                            : 2022
Cover                                    : Yes
Cover type                               : Cover (front)
Cover MIME                               : image/jpeg
COMPILATION                              : 1

Audio
Format                                   : FLAC
Format/Info                              : Free Lossless Audio Codec
Duration                                 : 6 min 8 s
Bit rate mode                            : Variable
Bit rate                                 : 970 kb/s
Channel(s)                               : 2 channels
Channel layout                           : L R
Sampling rate                            : 44.1 kHz
Bit depth                                : 16 bits
Compression mode                         : Lossless
Stream size                              : 42.6 MiB (100%)
Writing library                          : libFLAC 1.3.1 (UTC 2014-11-25)

Би-2 - Я никому не верю - spectrogram

Би-2 - Я никому не верю - detector

 

Для получения ссылки для скачивания , или заказать интересующую Вас песню свяжитесь с нами: WhatsApp, Telegram: +353833061642, e-mail: super.valerij2012@yandex.ru
To get a download link, or order a song you are interested in, contact us: WhatsApp, Telegram: +353833061642, e-mail: super.valerij2012@yandex.ru
Музыка
rockboy
03.02.2022

Tove Lo – How Long. FLAC, 2022


ИНФОРМАЦИЯ О ФАЙЛЕ

Format                                   : FLAC
Format/Info                              : Free Lossless Audio Codec
File size                                : 22.6 MiB
Duration                                 : 3 min 19 s
Overall bit rate mode                    : Variable
Overall bit rate                         : 951 kb/s
Album                                    : How Long - single
Part                                     : 1
Part/Total                               : 1
Track name                               : How Long (From"Euphoria" An HBO Original Series)
Track name/Position                      : 01
Track name/Total                         : 01
Performer                                : Tove Lo
Label                                    : 2022 | Interscope Records
Genre                                    : Pop,
Recorded date                            : 2022

Audio
Format                                   : FLAC
Format/Info                              : Free Lossless Audio Codec
Duration                                 : 3 min 19 s
Bit rate mode                            : Variable
Bit rate                                 : 951 kb/s
Channel(s)                               : 2 channels
Channel layout                           : L R
Sampling rate                            : 44.1 kHz
Bit depth                                : 16 bits
Compression mode                         : Lossless
Stream size                              : 22.6 MiB (100%)
Writing library                          : libFLAC 1.3.0 (UTC 2013-05-26)

Tove Lo – How Long - spectrogram

Tove Lo – How Long - detector

 

Для получения ссылки для скачивания , или заказать интересующую Вас песню свяжитесь с нами: WhatsApp, Telegram: +353833061642, e-mail: super.valerij2012@yandex.ru
To get a download link, or order a song you are interested in, contact us: WhatsApp, Telegram: +353833061642, e-mail: super.valerij2012@yandex.ru
Музыка
rockboy
03.02.2022

Foreigner - Urgent. WAV, 1981, Hi-Res

 заявка

ИНФОРМАЦИЯ О ФАЙЛЕ

Format                                   : Wave
File size                                : 300 MiB
Duration                                 : 4 min 30 s
Overall bit rate mode                    : Constant
Overall bit rate                         : 9 286 kb/s
Album                                    : 4
Part/Position                            : 1
Part/Total                               : 1
Track name                               : Urgent
Track name/Position                      : 06
Track name/Total                         : 10
Performer                                : Foreigner
Director                                 : Foreigner
Publisher                                : Atlantic ‎– SD 16999
Genre                                    : rock
Recorded date                            : 1981
Original source form/Name                : 4
Cover                                    : Yes
Cover type                               : Cover (front)
Cover MIME                               : image/jpeg
ITRK                                     : 06/10

Audio
Format                                   : PCM
Format settings                          : Little / Signed
Codec ID                                 : 1
Duration                                 : 4 min 30 s
Bit rate mode                            : Constant
Bit rate                                 : 9 216 kb/s
Channel(s)                               : 2 channels
Sampling rate                            : 192 kHz
Bit depth                                : 24 bits
Stream size                              : 298 MiB (99%)

Foreigner - Urgent - spectrogram




Для получения ссылки для скачивания , или заказать интересующую Вас песню свяжитесь с нами: WhatsApp, Telegram: +353833061642, e-mail: super.valerij2012@yandex.ru
To get a download link, or order a song you are interested in, contact us: WhatsApp, Telegram: +353833061642, e-mail: super.valerij2012@yandex.ru
Музыка
rockboy
02.02.2022

Amorphis - On The Dark Waters. FLAC, 2022


ИНФОРМАЦИЯ О ФАЙЛЕ

Format                                   : FLAC
Format/Info                              : Free Lossless Audio Codec
File size                                : 35.5 MiB
Duration                                 : 4 min 47 s
Overall bit rate mode                    : Variable
Overall bit rate                         : 1 037 kb/s
Album                                    : Halo - single
Part                                     : 1
Part/Total                               : 1
Track name                               : On The Dark Waters
Track name/Position                      : 01
Track name/Total                         : 02
Performer                                : Amorphis
Label                                    : 2022/Atomic Fire Records
Genre                                    : Metal,
Recorded date                            : 2022
Cover                                    : Yes
Cover type                               : Cover (front)
Cover MIME                               : image/jpeg

Audio
Format                                   : FLAC
Format/Info                              : Free Lossless Audio Codec
Duration                                 : 4 min 47 s
Bit rate mode                            : Variable
Bit rate                                 : 1 035 kb/s
Channel(s)                               : 2 channels
Channel layout                           : L R
Sampling rate                            : 44.1 kHz
Bit depth                                : 16 bits
Compression mode                         : Lossless
Stream size                              : 35.5 MiB (100%)
Writing library                          : libFLAC 1.3.1 (UTC 2014-11-25)

Amorphis - On The Dark Waters - spectrogram

Amorphis - On The Dark Waters - detector

 

Для получения ссылки для скачивания , или заказать интересующую Вас песню свяжитесь с нами: WhatsApp, Telegram: +353833061642, e-mail: super.valerij2012@yandex.ru
To get a download link, or order a song you are interested in, contact us: WhatsApp, Telegram: +353833061642, e-mail: super.valerij2012@yandex.ru
Музыка
rockboy
31.01.2022

Dark Meditation - Desolation Days. FLAC, 2022


ИНФОРМАЦИЯ О ФАЙЛЕ

Format                                   : FLAC
Format/Info                              : Free Lossless Audio Codec
File size                                : 33.5 MiB
Duration                                 : 5 min 0 s
Overall bit rate mode                    : Variable
Overall bit rate                         : 936 kb/s
Album                                    : Polluted Temples
Part                                     : 1
Part/Total                               : 1
Track name                               : Desolation Days
Track name/Position                      : 06
Track name/Total                         : 10
Performer                                : Dark Meditation
Label                                    : Released by Satanik Royalty Records
Genre                                    : Rock,
Recorded date                            : 2022
Cover                                    : Yes
Cover type                               : Cover (front)
Cover MIME                               : image/jpeg

Audio
Format                                   : FLAC
Format/Info                              : Free Lossless Audio Codec
Duration                                 : 5 min 0 s
Bit rate mode                            : Variable
Bit rate                                 : 934 kb/s
Channel(s)                               : 2 channels
Channel layout                           : L R
Sampling rate                            : 44.1 kHz
Bit depth                                : 16 bits
Compression mode                         : Lossless
Stream size                              : 33.4 MiB (100%)
Writing library                          : libFLAC 1.2.1 (UTC 2007-09-17)
 

Dark Meditation - Desolation Days - spectrogram

Dark Meditation - Desolation Days - detector

 

Для получения ссылки для скачивания , или заказать интересующую Вас песню свяжитесь с нами: WhatsApp, Telegram: +353833061642, e-mail: super.valerij2012@yandex.ru
To get a download link, or order a song you are interested in, contact us: WhatsApp, Telegram: +353833061642, e-mail: super.valerij2012@yandex.ru
Музыка
rockboy
24.01.2022

Octo Crura - Sangre De Dios. FLAC, 2022


ИНФОРМАЦИЯ О ФАЙЛЕ

Format                                   : FLAC
Format/Info                              : Free Lossless Audio Codec
File size                                : 26.0 MiB
Duration                                 : 3 min 45 s
Overall bit rate mode                    : Variable
Overall bit rate                         : 968 kb/s
Album                                    : Sangre De Dios - single
Part                                     : 1
Part/Total                               : 1
Track name                               : Sangre De Dios
Track name/Position                      : 01
Track name/Total                         : 01
Performer                                : Octo Crura
Label                                    : 2022 | DarkTunes Music Group
Genre                                    : Metal,
Recorded date                            : 2022
Cover                                    : Yes
Cover type                               : Cover (front)
Cover MIME                               : image/jpeg

Audio
Format                                   : FLAC
Format/Info                              : Free Lossless Audio Codec
Duration                                 : 3 min 45 s
Bit rate mode                            : Variable
Bit rate                                 : 967 kb/s
Channel(s)                               : 2 channels
Channel layout                           : L R
Sampling rate                            : 44.1 kHz
Bit depth                                : 16 bits
Compression mode                         : Lossless
Stream size                              : 25.9 MiB (100%)
Writing library                          : libFLAC 1.3.0 (UTC 2013-05-26)

Octo Crura - Sangre De Dios - spectrogram

Octo Crura - Sangre De Dios - detector

 

Для получения ссылки для скачивания , или заказать интересующую Вас песню свяжитесь с нами: WhatsApp, Telegram: +353833061642, e-mail: super.valerij2012@yandex.ru
To get a download link, or order a song you are interested in, contact us: WhatsApp, Telegram: +353833061642, e-mail: super.valerij2012@yandex.ru